<?xml version="1.0" standalone="no"?>
<!DOCTYPE svg PUBLIC "-//W3C//DTD SVG 1.1//EN" "http://www.w3.org/Graphics/SVG/1.1/DTD/svg11.dtd" >
<svg xmlns="http://www.w3.org/2000/svg">
  <metadata>Created by iconfont</metadata>
  <defs>
  <font id="iconfont" horiz-adv-x="1024">
    <font-face
      font-family="iconfont"
      font-weight="400"
      font-stretch="normal"
      units-per-em="1024"
      ascent="896"
      descent="-128"
    />
      <missing-glyph />
      
      <glyph glyph-name="a-guanbiicon" unicode="&#59006;" d="M828.928 643.072a40.96 40.96 0 0 1-57.9584 57.856L512 441.9072l-259.072 259.072a40.96 40.96 0 1 1-57.856-57.9584L454.0416 384l-259.072-259.0208a40.96 40.96 0 0 1 57.9584-57.856L512 325.9904l259.0208-259.0208a40.96 40.96 0 0 1 57.856 57.9072L569.9584 384l259.0208 259.072z"  horiz-adv-x="1024" />
      
      <glyph glyph-name="qingkongicon" unicode="&#59004;" d="M421.647059 817.332706a90.352941 90.352941 0 0 1-90.352941-90.352941v-60.235294H180.705882a30.117647 30.117647 0 0 1 0-60.235295H210.823529v-527.058823a60.235294 60.235294 0 0 1 60.235295-60.235294h481.882352a60.235294 60.235294 0 0 1 60.235295 60.235294v527.058823h30.117647a30.117647 30.117647 0 0 1 0 60.235295H692.705882v60.235294a90.352941 90.352941 0 0 1-90.352941 90.352941h-180.705882z m210.823529-150.588235H391.529412v60.235294a30.117647 30.117647 0 0 0 30.117647 30.117647h180.705882a30.117647 30.117647 0 0 0 30.117647-30.117647v-60.235294z m-271.058823-60.235295H752.941176v-527.058823H271.058824v527.058823h90.352941z m60.235294-105.411764a30.117647 30.117647 0 0 0 30.117647-30.117647v-240.941177a30.117647 30.117647 0 0 0-60.235294 0v240.941177a30.117647 30.117647 0 0 0 30.117647 30.117647z m210.823529-271.058824v240.941177a30.117647 30.117647 0 0 1-60.235294 0v-240.941177a30.117647 30.117647 0 0 1 60.235294 0z"  horiz-adv-x="1024" />
      
      <glyph glyph-name="tongzhiicon" unicode="&#59005;" d="M651.636364 444.090182V632.226909A31.045818 31.045818 0 0 1 620.590545 663.272727h-30.999272c-61.44-61.44-176.826182-95.790545-248.273455-112.128v-334.336c71.447273-16.290909 186.88-50.688 248.273455-112.081454h30.999272a31.045818 31.045818 0 0 1 31.045819 31.045818v188.136727a62.091636 62.091636 0 0 1 0 120.180364zM155.136 539.136C120.878545 539.136 93.090909 511.348364 93.090909 477.090909v-186.181818c0-34.257455 27.787636-62.045091 62.045091-62.045091H186.181818l31.045818-155.182545H279.272727v465.454545H155.136z m1696.209455-417.838545c-14.149818 0-22.341818 8.192-22.341819 22.341818V574.836364a32.954182 32.954182 0 0 1-5.213091 17.873454l-5.957818 9.681455c-9.681455 14.894545-2.978909 26.810182 14.894546 26.810182h228.631272c14.149818 0 22.341818-8.192 22.341819-22.341819v-463.220363c0-14.149818-8.192-22.341818-22.341819-22.341818h-210.01309z m-247.994182 536.203636c16.384 0 24.576-7.447273 20.107636-20.852364l-1.489454-4.468363c-3.723636-10.426182 0.744727-17.128727 11.915636-17.128728h130.327273c14.149818 0 22.341818-8.192 22.341818-22.341818v-26.065454c0-14.149818-8.192-22.341818-22.341818-22.341819h-14.894546a16.011636 16.011636 0 0 1-16.384-12.660363l-20.852363-69.259637c-2.978909-9.681455 2.234182-17.128727 12.660363-17.128727h53.620364c14.149818 0 22.341818-8.192 22.341818-22.341818v-26.065455c0-14.149818-8.192-22.341818-22.341818-22.341818h-79.685818a16.011636 16.011636 0 0 1-16.384-12.660363c-2.978909-8.936727 2.234182-15.639273 12.660363-15.639273h16.384c12.660364 0 20.852364-5.213091 25.320728-17.873455l68.514909-180.968727c5.957818-15.639273-1.489455-26.065455-17.873455-26.065454h-81.175273c-12.660364 0-20.852364 5.213091-25.320727 17.873454l-26.065454 68.514909c-5.213091 12.660364-15.639273 12.660364-19.36291-0.744727l-20.107636-67.025455c-3.723636-12.660364-11.915636-18.618182-24.576-18.618181h-89.367273c-15.639273 0-23.086545 10.426182-18.618181 25.320727l63.301818 210.757818c2.978909 9.681455-2.234182 17.128727-12.660364 17.128727H1483.403636c-14.149818 0-22.341818 8.192-22.341818 22.341818v26.065455c0 14.149818 8.192 22.341818 22.341818 22.341818h75.962182a16.011636 16.011636 0 0 1 16.384 12.660364l21.597091 69.259636c2.978909 10.426182 2.978909 17.128727-0.744727 17.128727-4.468364 0-8.192-3.723636-11.170909-11.915636l-4.468364-12.660364c-4.468364-12.660364-13.405091-17.873455-26.065454-17.873454h-66.280728c-16.384 0-23.086545 9.681455-17.873454 25.320727l29.789091 83.409455c2.234182 7.447273 2.978909 11.915636 0 19.362909l-0.744728 1.489454c-5.957818 15.639273 0.744727 26.065455 17.128728 26.065455h86.388363z m339.595636-452.049455c0-9.681455 5.213091-14.894545 14.149818-14.894545s14.149818 5.213091 14.149818 14.894545V543.557818c0 9.681455-5.213091 14.894545-14.149818 14.894546s-14.149818-5.213091-14.149818-14.894546v-338.106182zM1158.749091 542.068364a26.717091 26.717091 0 0 1-26.065455 16.384h-79.685818c-17.128727 0-23.831273-11.915636-16.384-26.810182 2.234182-4.468364-4.468364-8.192-15.639273-8.192h-3.723636c-14.149818 0-22.341818-8.192-22.341818-22.341818v-245.76c0-14.149818 8.192-22.341818 22.341818-22.341819h54.365091c14.149818 0 22.341818 8.192 22.341818 22.341819v19.362909c0 9.681455 5.213091 14.894545 14.894546 14.894545h20.107636c9.681455 0 14.894545-5.213091 14.894545-14.894545v-19.362909c0-14.149818 8.192-22.341818 22.341819-22.341819h54.365091c14.149818 0 22.341818 8.192 22.341818 22.341819v19.362909c0 9.681455 5.213091 14.894545 14.894545 14.894545h19.362909c9.681455 0 14.894545-3.723636 14.894546-10.426182 0-7.447273-2.978909-13.405091-8.192-18.618181l-9.681455-9.681455c-8.936727-8.936727 1.489455-17.873455 21.597091-17.873455h44.683636c29.044364 0 50.641455 22.341818 50.641455 51.386182V501.108364c0 14.149818-8.192 22.341818-22.341818 22.341818h-0.744727c-13.405091 0-16.384 9.681455-7.447273 18.618182l5.213091 5.213091a35.467636 35.467636 0 0 1 11.170909 27.554909v46.173091c0 14.149818-8.192 22.341818-22.341818 22.341818H1031.447273c-14.149818 0-22.341818-8.192-22.341818-22.341818v-26.065455c0-14.149818 8.192-22.341818 22.341818-22.341818h192.139636c12.660364 0 17.128727-9.681455 8.192-18.618182l-23.086545-23.086545a23.086545 23.086545 0 0 0-17.873455-7.447273h-10.426182c-8.192 0-13.405091 2.978909-17.128727 10.426182l-4.468364 8.192z m-253.207273-408.110546c12.660364 0 20.107636 3.723636 23.086546 11.170909 2.978909 6.702545 8.936727 9.681455 17.873454 6.702546l49.152-14.149818c9.681455-2.978909 17.873455-3.723636 27.554909-3.723637h359.703273c14.149818 0 22.341818 8.192 22.341818 22.341818v26.065455c0 14.149818-8.192 22.341818-22.341818 22.341818h-315.019636c-6.702545 0-11.915636 0.744727-17.873455 2.234182l-84.898909 24.576a16.849455 16.849455 0 0 0-12.660364 17.128727V507.810909c0 14.149818-8.192 22.341818-22.341818 22.341818H819.2c-14.149818 0-22.341818-8.192-22.341818-22.341818v-26.065454c0-14.149818 8.192-22.341818 22.341818-22.341819 3.723636 0 5.957818-5.213091 5.957818-14.894545v-230.120727c0-6.702545-1.489455-11.915636-3.723636-18.618182l-14.149818-35.746909c-5.957818-15.639273 0.744727-26.065455 17.128727-26.065455h81.175273zM826.647273 643.351273c-17.128727 0-23.831273-10.426182-16.384-26.065455l20.852363-42.449454c5.213091-11.170909 14.149818-16.384 26.065455-16.384h65.536c17.128727 0 23.831273 10.426182 16.384 26.065454l-20.852364 42.449455a26.717091 26.717091 0 0 1-26.065454 16.384H826.647273z m267.357091-198.097455c0 9.681455 5.957818 14.149818 14.894545 14.149818h20.107636c9.681455 0 14.894545-5.213091 14.894546-14.149818s-5.213091-14.149818-14.894546-14.149818h-20.107636c-9.681455 0-15.639273 4.468364-14.894545 14.149818z m0-84.898909c0 8.936727 5.213091 14.149818 14.894545 14.149818h20.107636c9.681455 0 14.894545-5.213091 14.894546-14.149818s-5.213091-14.149818-14.894546-14.149818h-20.107636c-9.681455 0-14.894545 5.213091-14.894545 14.149818z m148.945454 0c0 8.936727 5.213091 14.149818 14.894546 14.149818h19.362909c9.681455 0 14.894545-5.213091 14.894545-14.149818 0-9.681455-6.702545-14.149818-15.639273-14.149818h-18.618181c-9.681455 0-14.894545 5.213091-14.894546 14.149818z m34.257455 99.048727c9.681455 0 14.894545-4.468364 14.894545-14.149818-0.744727-8.936727-5.957818-14.149818-14.894545-14.149818h-19.362909c-9.681455 0-14.894545 5.213091-14.894546 14.149818s5.213091 14.149818 14.894546 14.149818h19.362909z"  horiz-adv-x="2141" />
      
      <glyph glyph-name="qiehuanicon" unicode="&#59001;" d="M937.984 823.296a64 64 0 0 1-101.76-75.264H488.576A313.216 313.216 0 0 1 175.744 435.2a64 64 0 1 1 128-0.128 185.216 185.216 0 0 0 184.96 184.96h346.88a64 64 0 0 1 102.4-73.984l86.4 86.528a64 64 0 0 1 6.912 97.28l-93.312 93.44zM196.096 64.768l91.776-91.648a64 64 0 0 1 102.144 74.496h347.648a313.216 313.216 0 0 1 312.704 312.832 64 64 0 0 1-128 0.128 185.216 185.216 0 0 0-184.832-184.96H390.016a64 64 0 0 1-102.144 74.624l-93.44-93.312a63.872 63.872 0 0 1 1.664-92.16z"  horiz-adv-x="1152" />
      
      <glyph glyph-name="reduicon" unicode="&#59002;" d="M692.370286-95.744s466.651429 269.824 127.414857 726.528c0 0 19.017143-139.483429-76.434286-155.721143 0 0-0.585143 325.851429-331.483428 389.193143 0 0 40.009143-196.242286-76.434286-285.403429 0 0-63.195429-44.178286-153.088 51.858286 0 0 31.890286-133.924571-50.980572-233.472 0 0-222.939429-336.310857 254.902858-492.982857 0 0-248.685714 278.308571 25.453714 467.090286a123.904 123.904 0 0 1 50.980571-155.721143s-38.180571 194.56 127.414857 259.437714c0 0-3.291429-127.561143 51.053715-181.540571 109.787429-98.523429 131.584-264.777143 51.2-389.266286z"  horiz-adv-x="1024" />
      
      <glyph glyph-name="fuzhiicon" unicode="&#59003;" d="M320 790.4a38.4 38.4 0 0 1 0-76.8h521.6V192a38.4 38.4 0 1 1 76.8 0V752a38.4 38.4 0 0 1-38.4 38.4H320z m-160-160a38.4 38.4 0 0 1-38.4-38.4v-560a38.4 38.4 0 0 1 38.4-38.4h560a38.4 38.4 0 0 1 38.4 38.4V592a38.4 38.4 0 0 1-38.4 38.4H160z m38.4-560V553.6h483.2v-483.2H198.4z"  horiz-adv-x="1024" />
      
      <glyph glyph-name="zhenweikefu" unicode="&#58998;" d="M254.7456 352.4864a16.256 16.256 0 0 1 16.2816 16.2816v118.0672c1.1264 138.8544 114.432 251.4432 253.5424 251.4432 131.1744 0 239.4112-100.1472 252.2624-227.9424v-141.568c0-9.0112 7.2704-16.2816 16.2816-16.2816h10.5472c1.536 0 3.1232 0.2048 4.608 0.6144a86.3232 86.3232 0 0 1 30.7712 149.2992c-9.216 165.4784-146.7392 297.2672-314.4704 297.2672-167.424 0-304.6912-131.2768-314.4192-296.2432a86.272 86.272 0 0 1 29.44-150.3232 15.4112 15.4112 0 0 1 4.608-0.6144h10.5472z m86.7584 56.6528a197.5552 197.5552 0 1 0 288-91.4688c125.2096-43.8272 227.7888-160.7424 247.6032-289.408a46.6432 46.6432 0 0 0-45.9776-53.9136H216.576c-28.6208 0-50.3296 25.6-46.0288 53.9136 19.9168 129.408 122.6496 245.6576 248.0896 289.3568a197.7088 197.7088 0 0 0-77.1328 91.52z m326.7328-216.32a32 32 0 1 1-45.2608 45.2608l-128.3584-128.3584-52.864 52.864a32 32 0 1 1-45.2608-45.2608l75.52-75.4944a32 32 0 0 1 45.2352 0l150.9888 150.9888z"  horiz-adv-x="1024" />
      
      <glyph glyph-name="jiaoyixuzhi" unicode="&#58999;" d="M245.76 513.92c0 165.9904 134.5536 300.544 300.544 300.544s300.544-134.5536 300.544-300.544c0-165.9648-134.5536-300.544-300.544-300.544S245.76 347.9552 245.76 513.92z m200.6528 141.6448a30.72 30.72 0 0 1 0-43.4432l34.6112-34.6112h-19.2a30.72 30.72 0 1 1 0-61.44h53.6064v-20.48H461.824a30.72 30.72 0 1 1 0-61.44h53.6064v-39.936a30.72 30.72 0 1 1 61.44 0v39.936h53.9136a30.72 30.72 0 0 1 0 61.44h-53.9136v20.48h53.9136a30.72 30.72 0 0 1 0 61.44h-21.6576l34.6112 34.6112a30.72 30.72 0 0 1-43.4432 43.4432l-55.2192-55.2192-55.2192 55.2192a30.72 30.72 0 0 1-43.4432 0zM169.5232 262.912a72.2432 72.2432 0 0 1-72.2176-72.2432v-108.1856a72.2432 72.2432 0 0 1 72.2176-72.2176h193.7408l198.5792-26.5728a201.344 201.344 0 0 1 134.6304 29.5936l212.352 134.8096a41.344 41.344 0 0 1-29.5424 75.5456l-278.784-50.6624a176.1792 176.1792 0 0 0-100.1472 11.0848l-98.6368 41.728a469.504 469.504 0 0 1-182.9376 37.12H169.5232z"  horiz-adv-x="1024" />
      
      <glyph glyph-name="heihaochaxun" unicode="&#59000;" d="M516.3008-98.7392c9.0368 0 16.3072 1.8944 23.552 5.7856C625.152-48.384 879.104 112.5888 879.104 304.5888V669.0816c0 25.1904-14.5408 46.4896-34.4576 54.2464-105.216 44.5952-204.9536 69.76-328.3456 69.76s-223.104-25.1648-328.2432-69.8624C168.1152 715.5456 153.6 694.1696 153.6 668.9792v-364.4928c0-191.8976 253.952-352.8448 339.1488-397.44 7.2704-3.8912 14.5152-5.7856 23.552-5.7856zM515.1744 529.92a123.52 123.52 0 1 1 0-247.04 123.52 123.52 0 0 1 0 247.04z m-190.08-123.52a190.08 190.08 0 1 0 345.9584-108.8l69.2736-69.2736a33.28 33.28 0 1 0-47.0528-47.0528l-69.2736 69.2736a190.08 190.08 0 0 0-298.9056 155.8528z"  horiz-adv-x="1024" />
      
      <glyph glyph-name="shengxu" unicode="&#58997;" d="M290.084571 457.142857h443.904a29.257143 29.257143 0 0 1 20.699429 49.956572L532.699429 729.014857a29.257143 29.257143 0 0 1-41.325715 0L269.385143 507.099429A29.257143 29.257143 0 0 1 290.084571 457.142857zM733.915429 310.857143H290.011429a29.257143 29.257143 0 0 1-20.699429-49.956572l221.988571-221.915428a29.257143 29.257143 0 0 1 41.325715 0l221.988571 221.915428A29.257143 29.257143 0 0 1 733.915429 310.857143z"  horiz-adv-x="1024" />
      
      <glyph glyph-name="jiangxu" unicode="&#58996;" d="M290.084571 457.142857h443.904a29.257143 29.257143 0 0 1 20.699429 49.956572L532.699429 729.014857a29.257143 29.257143 0 0 1-41.325715 0L269.385143 507.099429A29.257143 29.257143 0 0 1 290.084571 457.142857zM733.915429 310.857143H290.011429a29.257143 29.257143 0 0 1-20.699429-49.956572l221.988571-221.915428a29.257143 29.257143 0 0 1 41.325715 0l221.988571 221.915428A29.257143 29.257143 0 0 1 733.915429 310.857143z"  horiz-adv-x="1024" />
      
      <glyph glyph-name="shouhouwuyou" unicode="&#58979;" d="M504.192 631.168L330.24 576 224.32 373.12l177.664-149.632 226.24-56.512 102.528 102.464-108.48 93.696-26.496-19.84v-0.064a166.784 166.784 0 0 0-199.552 0l-0.256 0.192-21.632 16.384a70.784 70.784 0 0 0-7.872 105.792l0.384 0.384 156.8 156.352-19.456 8.832z m29.44 70.976l134.144-60.864 38.784-0.64 96.192 48.064a70.016 70.016 0 0 0 93.76-30.08l98.304-188.352a70.336 70.336 0 0 0-30.848-95.808l-89.28-44.48-42.24-66.24a38.592 38.592 0 0 0-5.248-6.464l-147.2-147.2a72.32 72.32 0 0 0-65.664-18.752l-0.64 0.128-0.64 0.128-231.936 57.984-1.024 0.256a70.4 70.4 0 0 0-25.472 13.248l-0.512 0.384L154.88 331.2 60.096 378.816A70.016 70.016 0 0 0 29.248 474.24l98.304 188.288a70.4 70.4 0 0 0 93.312 30.72l0.32-0.128 87.04-43.52 175.872 55.744 1.024 0.32a70.4 70.4 0 0 0 48.448-3.52z m-433.28-257.6l59.136-29.696L251.904 592l-59.136 29.504-92.416-176.896z m823.488-4.224l-92.416 176.896-59.264-29.632 92.416-176.768 59.264 29.44z m-274.752 1.152l132.544-114.496 22.08 34.56-105.856 202.432-122.048 1.92-149.504-149.12 16-12.096a89.984 89.984 0 0 1 107.52 0.064l51.072 38.4a38.4 38.4 0 0 0 48.192-1.664z m-415.872-284.48a38.4 38.4 0 0 1-50.368-57.984l90.24-78.272c8.448-7.424 18.56-12.672 29.504-15.232l120.064-30.336a38.4 38.4 0 0 1 18.752 74.496l-119.04 30.08-89.152 77.248z"  horiz-adv-x="1024" />
      
      <glyph glyph-name="sousuo" unicode="&#58982;" d="M179.2 431.9744a284.8256 284.8256 0 1 0 569.6 0 284.8256 284.8256 0 0 0-569.6 0zM464.0256 819.2a387.2256 387.2256 0 1 1 235.1616-694.784l160.6144-160.6144a51.2 51.2 0 0 1 72.3968 72.3968l-160.6144 160.6144A387.1744 387.1744 0 0 1 463.9744 819.2z"  horiz-adv-x="1024" />
      
      <glyph glyph-name="tupianxuanzhongbiaoqian" unicode="&#58983;" d="M512 896a512 512 0 0 1-512-512v-512h512a512 512 0 0 1 512 512V896H512z m301.248-397.248l-320-320a64 64 0 0 0-90.496 0l-160 160a64 64 0 0 0 90.496 90.496L448 314.496l274.752 274.752a64 64 0 1 0 90.496-90.496z"  horiz-adv-x="1024" />
      
      <glyph glyph-name="qingkong" unicode="&#58984;" d="M512 800A416 416 0 1 1 928 384 416.768 416.768 0 0 1 512 800z m150.784-521.216a32.4096 32.4096 0 0 0 0-45.568 32.768 32.768 0 0 0-45.568 0L512 338.7904l-105.216-105.5744a32.768 32.768 0 0 0-45.568 0 32.4096 32.4096 0 0 0 0 45.568L466.7904 384 361.216 489.216a32.4096 32.4096 0 0 0 45.568 45.568L512 429.2096l105.216 105.5744a32.4096 32.4096 0 0 0 45.568-45.568L557.2096 384l105.5744-105.216z"  horiz-adv-x="1024" />
      
      <glyph glyph-name="shaixuanshouqi" unicode="&#58985;" d="M861.696 179.626667a32 32 0 0 0-29.610667-19.626667h-640a32 32 0 0 0-29.610666 19.626667 33.621333 33.621333 0 0 0 6.826666 35.157333l320 320a32.768 32.768 0 0 0 45.568 0l320-320a33.621333 33.621333 0 0 0 6.826667-35.157333z"  horiz-adv-x="1024" />
      
      <glyph glyph-name="shaixuan" unicode="&#58986;" d="M59.306667 735.488A68.266667 68.266667 0 0 0 112.042667 847.018667h800A68.266667 68.266667 0 0 0 964.266667 734.72L666.112 381.952v-261.888a68.266667 68.266667 0 0 0-28.245333-55.296l-180.906667-130.730667a68.266667 68.266667 0 0 0-108.202667 55.296V382.378667L59.306667 735.573333z m124.842666 9.130667l251.562667-306.688a68.266667 68.266667 0 0 0 15.445333-43.349334v-338.432l112.554667 81.408v256.853334a68.266667 68.266667 0 0 0 16.128 44.117333l258.730667 306.090667H184.149333z"  horiz-adv-x="1024" />
      
      <glyph glyph-name="kefu" unicode="&#58987;" d="M704.4096 779.2128a426.7008 426.7008 0 0 1-164.0448 31.4368A426.6496 426.6496 0 0 1 110.8992 384v-224a106.6496 106.6496 0 0 1 106.6496-106.6496H281.6a106.6496 106.6496 0 0 1 106.7008 106.6496V320a106.6496 106.6496 0 0 1-106.7008 106.6496H198.912a341.3504 341.3504 0 0 0 341.1456 298.7008h0.6656a341.3504 341.3504 0 0 0 341.504-298.7008h-82.688a106.6496 106.6496 0 0 1-106.6496-106.6496v-160a106.6496 106.6496 0 0 1 106.7008-106.6496h64c7.0656 0 14.0288 0.6656 20.8896 2.048a85.2992 85.2992 0 0 0-84.8896-76.6976h-230.0416a42.6496 42.6496 0 0 1 0-85.3504h229.9904a170.7008 170.7008 0 0 1 170.7008 170.6496v96V384a426.7008 426.7008 0 0 1-265.8304 395.2128z m180.48-619.2128a21.3504 21.3504 0 0 0-21.3504-21.3504h-64a21.2992 21.2992 0 0 0-21.2992 21.3504V320a21.3504 21.3504 0 0 0 21.3504 21.3504h85.2992v-181.3504z m-688.64 0v181.3504h85.2992a21.2992 21.2992 0 0 0 21.3504-21.3504v-160a21.3504 21.3504 0 0 0-21.3504-21.3504H217.6a21.2992 21.2992 0 0 0-21.2992 21.3504z"  horiz-adv-x="1075" />
      
      <glyph glyph-name="hailiangyouxi" unicode="&#58977;" d="M688.128 705.152a240 240 0 0 0 237.44-204.928l64.32-331.008a144 144 0 0 0-243.776-127.04l-1.088 1.216-163.2 181.248-139.392-0.64-163.328-180.672-1.088-1.152a144 144 0 0 0-243.776 127.04l0.128 0.448L99.84 505.792A240.384 240.384 0 0 0 336 704l352.064 1.28z m173.248-210.048a32.32 32.32 0 0 0-0.512 3.904 176 176 0 0 1-172.736 142.144L336.256 640a176.512 176.512 0 0 1-173.44-145.6v-0.512l-65.6-336.128a80 80 0 0 1 134.976-70.848l172.224 190.592a32 32 0 0 0 23.616 10.496l166.016 0.768a32 32 0 0 0 3.584 0l90.368 0.448h0.128a176 176 0 0 1 174.336 200.448l-1.088 5.504z m-173.248-269.952l-20.48-0.064 124.352-138.24a80 80 0 0 1 134.912 70.848l-35.072 180.544a239.808 239.808 0 0 0-203.584-113.088h-0.128zM352 560a32 32 0 0 0 32-32v-32h32a32 32 0 0 0 0-64H384v-32a32 32 0 0 0-64 0v32h-32a32 32 0 0 0 0 64H320v32a32 32 0 0 0 32 32z m256-64a32 32 0 0 1 0-64h128a32 32 0 0 1 0 64h-128z"  horiz-adv-x="1024" />
      
      <glyph glyph-name="qiehuanyouxi" unicode="&#58988;" d="M348.9792 681.728a40.96 40.96 0 0 0 0-57.856L290.9184 565.76H832a40.96 40.96 0 0 0 0-81.92H192a40.96 40.96 0 0 0-27.648 71.168l126.72 126.72a40.96 40.96 0 0 0 57.9072 0zM191.9488 202.24H733.0816l-58.0608-58.112a40.96 40.96 0 0 1 57.856-57.9072l128 128a40.9088 40.9088 0 0 1-28.928 69.9392H192a40.96 40.96 0 0 1 0-81.92z"  horiz-adv-x="1024" />
      
      <glyph glyph-name="jiageshaixuan" unicode="&#58989;" d="M733.915429 457.142857H290.011429a29.257143 29.257143 0 0 0-20.699429 49.956572l221.988571 221.915428a29.257143 29.257143 0 0 0 41.325715 0l221.988571-221.915428a29.257143 29.257143 0 0 0-20.699428-49.956572zM290.011429 310.857143h443.904a29.257143 29.257143 0 0 0 20.699428-49.956572l-221.988571-221.915428a29.257143 29.257143 0 0 0-41.325715 0L269.312 260.900571A29.257143 29.257143 0 0 0 290.011429 310.857143z"  horiz-adv-x="1024" />
      
      <glyph glyph-name="manzuquanbu" unicode="&#58990;" d="M342.656 726.656a32 32 0 0 0 0-45.312L269.248 608H832a32 32 0 0 0 0-64H269.248l73.408-73.344a32 32 0 1 0-45.312-45.312l-128 128a32 32 0 0 0 0 45.312l128 128a32 32 0 0 0 45.312 0z m338.688-384a32 32 0 0 0 45.312 0l128-128a32 32 0 0 0 0-45.312l-128-128a32 32 0 0 0-45.312 45.312l73.408 73.344H192a32 32 0 0 0 0 64h562.752l-73.408 73.344a32 32 0 0 0 0 45.312z"  horiz-adv-x="1024" />
      
      <glyph glyph-name="fenxiang" unicode="&#58991;" d="M868.437333 794.026667a74.24 74.24 0 0 1-38.997333-0.597334L84.309333 583.552l-0.170666-0.042667a74.666667 74.666667 0 0 1-11.392-139.776l338.688-160.256 160.256-338.688a74.666667 74.666667 0 0 1 139.776 11.349334l209.92 745.344a74.24 74.24 0 0 1-52.949334 92.544zM134.314667 509.013333l699.733333 197.034667-197.12-699.690667-142.08 300.288 159.616 159.573334a42.666667 42.666667 0 1 1-60.330667 60.373333L434.517333 366.933333 134.314667 508.970667z"  horiz-adv-x="1024" />
      
      <glyph glyph-name="chakangengduo" unicode="&#58992;" d="M347.818667 740.181333a51.2 51.2 0 0 0 72.448 0l320-320a51.2 51.2 0 0 0 0-72.362666l-320-320a51.2 51.2 0 0 0-72.448 72.362666L631.637333 384 347.818667 667.818667a51.2 51.2 0 0 0 0 72.362666z"  horiz-adv-x="1024" />
      
      <glyph glyph-name="fanhui" unicode="&#58993;" d="M670.165333 734.165333a42.666667 42.666667 0 0 0 0-60.330666L380.330667 384l289.834666-289.834667a42.666667 42.666667 0 0 0-60.330666-60.330666l-320 320a42.666667 42.666667 0 0 0 0 60.330666l320 320a42.666667 42.666667 0 0 0 60.330666 0z"  horiz-adv-x="1024" />
      
      <glyph glyph-name="anxinbaozhang" unicode="&#58994;" d="M198.4 437.184v228.48h627.2v-228.48c0-304.832-254.656-408.896-313.6-428.8-58.88 19.904-313.6 123.968-313.6 428.8zM192 742.464a70.4 70.4 0 0 1-70.4-70.4v-234.88c0-362.368 307.712-482.24 367.808-502.272 14.656-5.184 30.592-5.184 45.184 0 60.16 20.032 367.808 139.904 367.808 502.272v234.88A70.4 70.4 0 0 1 832 742.4H192z m522.56-290.24a38.4 38.4 0 0 1-53.056 55.552L453.248 309.12 362.56 395.776a38.4 38.4 0 1 1-53.12-55.552l117.248-112a38.4 38.4 0 0 1 53.056 0l234.816 224z"  horiz-adv-x="1024" />
      
      <glyph glyph-name="youzhizhanghao" unicode="&#58995;" d="M358.4 470.912V102.4h449.152a25.6 25.6 0 0 1 25.344 22.4l48 384a25.6 25.6 0 0 1-25.344 28.8H620.8a51.2 51.2 0 0 0-51.2 51.2V672a81.28 81.28 0 0 1-29.76 64.896 111.744 111.744 0 0 1-38.08 20.736L358.4 470.912zM296.32 518.4l145.792 291.712A50.112 50.112 0 0 0 491.52 837.76c29.632-2.752 67.2-16.32 97.92-42.368 31.872-26.944 56.96-68.032 56.96-123.52v-57.6h209.152a102.4 102.4 0 0 0 101.568-115.072l-48-384a102.4 102.4 0 0 0-101.568-89.664H128a70.4 70.4 0 0 0-70.4 70.4V448A70.4 70.4 0 0 0 128 518.4h168.32zM281.6 441.6H134.4v-339.2h147.2V441.6z"  horiz-adv-x="1024" />
      
      <glyph glyph-name="xuanzeicon" unicode="&#58981;" d="M122.24 359.36a27.264 27.264 0 0 0-2.752 36.416l20.48 25.792a26.752 26.752 0 0 0 35.2 5.888l177.28-118.4a31.744 31.744 0 0 1 34.24 1.664l468.608 380.16a27.968 27.968 0 0 0 36.224-1.408l11.52-11.52c10.048-10.048 9.344-25.92-1.152-36.48l-502.976-502.144a40.64 40.64 0 0 0-57.408 1.152L122.24 359.36z"  horiz-adv-x="1024" />
      
      <glyph glyph-name="jiaoyiliuchengbiaoti" unicode="&#58978;" d="M107.995429 412.672c-12.288-18.432-4.388571-31.597714 16.676571-31.597714h43.008c8.777143 0 14.921143-1.755429 21.942857-7.899429l107.081143-86.893714c9.654857-7.899429 9.654857-17.554286-0.877714-25.453714l-199.241143-144.822858c-20.187429-14.921143-14.043429-32.475429 10.532571-32.475428h143.945143c12.288 0 22.820571 3.510857 33.353143 10.532571l122.88 86.893715c7.899429 6.144 15.798857 6.144 24.576-0.877715l105.325714-85.138285c10.532571-8.777143 19.309714-11.410286 32.475429-11.410286h149.211428c24.576 0 31.597714 16.676571 11.410286 32.475428l-186.075428 144.822858c-9.654857 7.021714-9.654857 16.676571 0 24.576l108.836571 87.771428c7.021714 6.144 13.165714 7.899429 21.942857 7.899429h39.497143c21.065143 0 28.964571 13.165714 16.676571 31.597714l-83.382857 119.369143c-7.899429 12.288-17.554286 16.676571-31.597714 16.676571h-108.836571c-21.065143 0-28.086857-13.165714-16.676572-31.597714l42.130286-64.950857c7.899429-11.410286 6.144-21.065143-3.510857-21.065143-12.288 0-21.942857-3.510857-31.597715-11.410286l-65.828571-50.907428c-8.777143-7.021714-16.676571-6.144-24.576 0.877714L346.697143 419.693714a47.433143 47.433143 0 0 1-32.475429 11.410286c-13.165714 0-16.676571 9.654857-8.777143 21.065143l43.008 64.950857c11.410286 17.554286 3.510857 31.597714-17.554285 31.597714H222.976c-14.043429 0-23.698286-4.388571-31.597714-16.676571l-83.382857-119.369143z m-3.510858 252.781714c-16.676571 0-26.331429-9.654857-26.331428-26.331428v-30.72c0-16.676571 9.654857-26.331429 26.331428-26.331429h631.076572c16.676571 0 26.331429 9.654857 26.331428 26.331429v30.72c0 16.676571-9.654857 26.331429-26.331428 26.331428h-214.162286c-11.410286 0-17.554286 6.144-17.554286 17.554286v7.899429c0 15.798857-9.654857 24.576-26.331428 24.576H344.978286c-21.942857 0-29.842286-14.921143-15.798857-32.475429 5.266286-7.021714 7.899429-11.410286 7.899428-13.165714 0-2.633143-6.144-4.388571-17.554286-4.388572h-215.04z m2241.572572-250.148571c20.187429 0 28.086857 12.288 19.309714 30.72l-41.252571 83.382857c-6.144 13.165714-16.676571 19.309714-30.72 19.309714h-78.116572c-20.187429 0-28.086857-12.288-19.309714-30.72 1.755429-3.510857-7.021714-5.266286-20.187429-6.144l-110.592-5.266285c-14.921143-0.877714-20.187429 9.654857-10.532571 21.065142l35.108571 43.885715a25.014857 25.014857 0 0 0 21.065143 10.532571h227.328c16.676571 0 26.331429 9.654857 26.331429 26.331429v30.72c0 16.676571-9.654857 26.331429-26.331429 26.331428H2214.4c-11.410286 0-16.676571 5.266286-16.676571 17.554286v7.899429c0 16.676571-9.654857 24.576-26.331429 24.576h-111.469714c-23.698286 0-29.842286-15.798857-13.165715-32.475429h0.877715v-8.777143c0-5.266286-6.144-8.777143-17.554286-8.777143h-139.556571c-16.676571 0-26.331429-9.654857-26.331429-26.331428v-30.72c0-16.676571 9.654857-26.331429 26.331429-26.331429h29.842285c14.921143 0 18.432-9.654857 9.654857-21.065143l-37.741714-48.274285c-7.899429-10.532571-11.410286-19.309714-11.410286-32.475429V442.514286c0-16.676571 10.532571-27.209143 27.209143-26.331429l317.732572 14.043429c9.654857 0.877714 15.798857-1.755429 18.432-7.021715 2.633143-6.144 10.532571-7.899429 24.576-7.899428h77.238857z m43.885714-217.673143c0 23.698286-14.921143 31.597714-29.842286 15.798857l-21.942857-22.820571c-6.144-7.021714-11.410286-8.777143-15.798857-8.777143s-7.899429 6.144-7.899428 17.554286V372.297143c0 16.676571-9.654857 26.331429-26.331429 26.331428h-64.073143c-16.676571 0-26.331429-9.654857-26.331428-26.331428v-262.436572c0-16.676571 9.654857-26.331429 26.331428-26.331428h139.556572c16.676571 0 26.331429 9.654857 26.331428 26.331428v87.771429z m-616.155428-114.102857c15.798857 0 24.576 8.777143 28.086857 23.698286l39.497143 195.730285c3.510857 17.554286-4.388571 28.964571-22.820572 28.964572h-97.426286c-15.798857 0-24.576-7.899429-28.086857-23.698286l-39.497143-195.730286c-3.510857-17.554286 4.388571-28.964571 22.820572-28.964571h97.426286z m175.542857 0c15.798857 0 25.453714 7.899429 28.086857 23.698286l48.274286 262.436571c3.510857 18.432-6.144 28.964571-23.698286 28.964571H1937.92c-15.798857 0-25.453714-7.899429-28.086857-23.698285l-48.274286-262.436572c-3.510857-18.432 6.144-28.964571 23.698286-28.964571h64.073143z m188.708571 0c16.676571 0 26.331429 9.654857 26.331429 26.331428V372.297143c0 16.676571-9.654857 26.331429-26.331429 26.331428H2073.965714c-16.676571 0-26.331429-9.654857-26.331428-26.331428v-262.436572c0-16.676571 9.654857-26.331429 26.331428-26.331428h64.073143z m-320.365714 281.746286c18.432 0 27.209143 11.410286 23.698286 28.964571l-21.942858 98.304c-3.510857 14.921143-13.165714 22.820571-28.964571 22.820571h-96.548571c-18.432 0-27.209143-11.410286-23.698286-28.964571l21.942857-98.304c3.510857-14.921143 13.165714-22.820571 28.964571-22.820571h96.548572z m0 183.442285c18.432 0 27.209143 11.410286 23.698286 28.964572l-21.942858 98.304c-3.510857 14.921143-13.165714 22.820571-28.964571 22.820571h-96.548571c-18.432 0-27.209143-11.410286-23.698286-28.964571l21.942857-98.304c3.510857-14.921143 13.165714-22.820571 28.964571-22.820572h96.548572z m993.462857-239.616c-16.676571 0-26.331429-9.654857-26.331429-26.331428v-27.209143c0-16.676571 9.654857-26.331429 26.331429-26.331429h71.972571c11.410286 0 17.554286-6.144 17.554286-17.554285v-30.72c0-11.410286-6.144-17.554286-17.554286-17.554286h-93.037714c-16.676571 0-26.331429-9.654857-26.331428-26.331429v-24.576c0-16.676571 9.654857-26.331429 26.331428-26.331428h375.661714c16.676571 0 26.331429 9.654857 26.331429 26.331428v24.576c0 16.676571-9.654857 26.331429-26.331429 26.331429h-94.793142c-11.410286 0-17.554286 6.144-17.554286 17.554286v30.72c0 11.410286 6.144 17.554286 17.554286 17.554285h72.850285c16.676571 0 26.331429 9.654857 26.331429 26.331429v27.209143c0 16.676571-9.654857 26.331429-26.331429 26.331428h-72.850285c-11.410286 0-17.554286 6.144-17.554286 17.554286v18.432c0 11.410286 6.144 17.554286 17.554286 17.554286h88.649142c16.676571 0 26.331429 9.654857 26.331429 26.331428v23.698286c0 16.676571-9.654857 26.331429-26.331429 26.331429h-365.129142c-16.676571 0-26.331429-9.654857-26.331429-26.331429v-23.698286c0-16.676571 9.654857-26.331429 26.331429-26.331428h88.649142c11.410286 0 17.554286-6.144 17.554286-17.554286v-18.432c0-11.410286-6.144-17.554286-17.554286-17.554286h-71.972571zM2739.163429 679.497143c0 17.554286-9.654857 27.209143-27.209143 25.453714l-219.428572-20.187428c-15.798857-1.755429-25.453714-12.288-25.453714-28.086858v-27.209142c0-17.554286 9.654857-27.209143 27.209143-25.453715l28.964571 2.633143c11.410286 0.877714 18.432-5.266286 18.432-16.676571v-34.230857c0-11.410286-6.144-17.554286-17.554285-17.554286h-36.864c-16.676571 0-26.331429-9.654857-26.331429-26.331429v-28.086857c0-16.676571 9.654857-26.331429 26.331429-26.331428h45.641142c11.410286 0 17.554286-6.144 17.554286-17.554286v-330.020572c0-16.676571 9.654857-26.331429 26.331429-26.331428h63.195428c16.676571 0 26.331429 9.654857 26.331429 26.331428v330.020572c0 11.410286 6.144 17.554286 17.554286 17.554286h41.252571c16.676571 0 26.331429 9.654857 26.331429 26.331428v28.086857c0 16.676571-9.654857 26.331429-26.331429 26.331429h-31.597714c-11.410286 0-17.554286 6.144-17.554286 17.554286v48.274285c0 10.532571 6.144 17.554286 16.676571 18.432l21.942858 1.755429c15.798857 1.755429 24.576 12.288 24.576 28.086857V679.497143z m46.518857-179.931429c0-16.676571 9.654857-26.331429 26.331428-26.331428h335.286857c16.676571 0 26.331429 9.654857 26.331429 26.331428V672.475429c0 16.676571-9.654857 26.331429-26.331429 26.331428h-335.286857c-16.676571 0-26.331429-9.654857-26.331428-26.331428v-172.909715z m-275.602286-384.438857c16.676571 0 25.453714 7.899429 26.331429 25.453714l10.532571 256.292572c0.877714 16.676571-9.654857 27.209143-26.331429 27.209143h-21.942857c-16.676571 0-25.453714-7.899429-26.331428-25.453715l-10.532572-256.292571c-0.877714-16.676571 9.654857-27.209143 26.331429-27.209143h21.942857z m220.306286 0c16.676571 0 27.209143 10.532571 26.331428 27.209143l-10.532571 256.292571c-0.877714 17.554286-9.654857 25.453714-26.331429 25.453715h-21.942857c-16.676571 0-27.209143-10.532571-26.331428-27.209143l10.532571-256.292572c0.877714-17.554286 9.654857-25.453714 26.331429-25.453714h21.942857z m203.629714 434.468572c-11.410286 0-17.554286 6.144-17.554286 17.554285V604.891429c0 11.410286 6.144 17.554286 17.554286 17.554285h89.526857c11.410286 0 17.554286-6.144 17.554286-17.554285v-37.741715c0-11.410286-6.144-17.554286-17.554286-17.554285h-89.526857z m-1988.754286-143.067429c-6.144 3.510857 17.554286 8.777143 43.008 8.777143h93.952c21.942857 0 38.619429-3.510857 35.108572-7.899429-3.510857-4.388571 5.229714-8.777143 20.187428-8.777143h409.892572c16.676571 0 26.331429-9.654857 26.331428-26.331428v-230.838857c0-34.230857-25.453714-57.929143-59.684571-57.929143h-132.534857c-21.942857 0-29.001143 14.921143-14.957715 32.475428l32.512 40.374858c5.266286 7.021714 7.862857 13.165714 7.862858 21.942857v37.741714c0 16.676571-11.373714 20.187429-21.028572 7.021714L1294.628571 99.328c-7.899429-11.410286-18.468571-15.798857-32.512-15.798857H1162.971429c-21.942857 0-28.928 14.043429-15.762286 32.475428l131.657143 178.176c8.777143 12.288 4.388571 21.065143-8.777143 21.065143h-12.324572c-8.777143 0-15.762286-2.633143-21.028571-10.532571l-151.003429-205.385143c-7.899429-11.410286-18.432-15.798857-32.475428-15.798857h-99.181714c-21.942857 0-28.928 14.043429-15.762286 32.475428l131.657143 178.176c8.777143 12.288 6.144 21.065143-4.388572 21.065143h-7.021714a25.014857 25.014857 0 0 1-21.065143-10.532571l-18.468571-23.698286c-7.862857-10.532571-18.395429-15.798857-32.438857-15.798857h-89.526858c-21.942857 0-29.001143 14.921143-15.798857 32.475429l66.669715 85.138285c7.021714 9.654857 6.144 17.554286-2.633143 23.698286z m4.388572 25.453714c-16.64 0-26.331429 9.654857-26.331429 26.331429V634.733714c0 7.899429-1.718857 13.165714-6.144 21.065143l-7.021714 11.410286c-11.373714 17.554286-3.510857 31.597714 17.554286 31.597714H1514.057143c16.676571 0 26.331429-9.654857 26.331428-26.331428v-214.162286c0-16.676571-9.654857-26.331429-26.331428-26.331429H949.686857z m157.988571 200.118857c-11.373714 0-17.554286-6.144-17.554286-16.676571 0-10.532571 6.180571-16.676571 17.554286-16.676571h248.429714c11.410286 0 17.554286 6.144 17.554286 16.676571 0 10.532571-6.180571 16.676571-17.554286 16.676571h-248.393142z m-17.554286-116.736c0-10.532571 6.180571-16.676571 17.554286-16.676571h248.429714c11.410286 0 17.554286 6.144 17.554286 16.676571 0 10.532571-6.180571 16.676571-17.554286 16.676572h-248.393142c-11.446857 0-17.554286-6.144-17.554286-16.676572z"  horiz-adv-x="3254" />
      
      <glyph glyph-name="shaixuanzhankai" unicode="&#58980;" d="M861.696 524.373333a32 32 0 0 1-29.610667 19.626667h-640a32 32 0 0 1-29.610666-19.626667 33.621333 33.621333 0 0 1 6.826666-35.157333l320-320a32.768 32.768 0 0 1 45.568 0l320 320a33.621333 33.621333 0 0 1 6.826667 35.157333z"  horiz-adv-x="1024" />
      
      <glyph glyph-name="anquanbaozhangbiaoti" unicode="&#58976;" d="M562.988138 482.445241c-16.101517 0-25.423448-6.779586-25.423448-19.49131v-3.389793c0-11.016828-5.932138-16.948966-16.948966-16.948966H296.889379c-11.016828 0-16.948966 5.932138-16.948965 16.948966v3.389793c0 12.711724-9.321931 19.49131-25.423448 19.49131H160.450207c-16.101517 0-25.423448-9.321931-25.423448-25.423448 0-9.321931-5.932138-14.406621-16.948966-14.406621H96.044138c-16.101517 0-25.423448-9.321931-25.423448-25.423448v-29.66069c0-16.101517 9.321931-25.423448 25.423448-25.423448h22.033655c11.016828 0 16.948966-5.932138 16.948966-16.948965v-51.694345c0-13.559172 5.932138-22.881103 18.643862-29.66069l103.388689-50.846896c12.711724-6.779586 12.711724-17.796414 0-23.728552l-142.37131-70.338207c-22.881103-11.864276-17.796414-30.508138 7.627034-30.508138H295.194483c11.864276 0 21.186207 1.694897 32.203034 7.627035l69.490759 34.745379a23.728552 23.728552 0 0 0 23.728552 0l69.490758-34.745379c11.016828-5.932138 20.338759-7.627034 32.203035-7.627035h172.879448c25.423448 0 30.508138 18.643862 7.627034 30.508138l-142.37131 70.338207c-12.711724 5.932138-12.711724 16.948966 0 23.728552l103.38869 50.846896c12.711724 6.779586 18.643862 16.101517 18.643862 29.66069V345.158621c0 11.016828 5.932138 16.948966 16.948965 16.948965h22.033656c16.101517 0 25.423448 9.321931 25.423448 25.423448v29.66069c0 16.101517-9.321931 25.423448-25.423448 25.423448h-22.033656c-11.016828 0-16.948966 5.932138-16.948965 16.948966v3.389793c0 12.711724-9.321931 19.49131-25.423448 19.49131h-94.066759z m6.779586 49.152c0-15.254069 9.321931-24.576 25.423448-24.576h126.269794c16.101517 0 25.423448 9.321931 25.423448 25.423449V610.409931c0 16.101517-9.321931 25.423448-25.423448 25.423448h-215.251863c-11.016828 0-16.948966 5.932138-16.948965 16.948966v7.627034c0 15.254069-9.321931 23.728552-25.423448 23.728552h-127.117242c-21.186207 0-28.813241-14.406621-15.254069-31.355586 5.08469-5.932138 6.779586-10.169379 6.779587-12.711724 0-2.542345-5.932138-4.237241-16.948966-4.237242H96.044138c-16.101517 0-25.423448-9.321931-25.423448-25.423448v-77.965241c0-16.101517 9.321931-25.423448 25.423448-25.423449h126.269793c16.101517 0 25.423448 9.321931 25.423448 25.423449v5.932138c0 11.016828 5.932138 16.948966 16.948966 16.948965h288.132414c11.016828 0 16.948966-5.932138 16.948965-16.948965v-6.779587z m-149.150896-260.16662a23.728552 23.728552 0 0 0-23.728552 0L292.652138 323.972414c-8.474483 4.237241-12.711724 10.169379-12.711724 19.49131v2.542345c0 10.169379 5.932138 16.101517 16.948965 16.101517h223.726345c11.016828 0 16.948966-5.932138 16.948966-16.948965v-1.694897c0-9.321931-4.237241-15.254069-12.711724-19.49131l-104.236138-52.541793zM971.387586 662.951724c-6.779586 11.864276 2.542345 21.186207 22.881104 21.186207h324.572689c13.559172 0 22.881103-5.08469 31.355587-15.254069l157.625379-203.387586c12.711724-16.948966 5.932138-31.355586-15.254069-31.355586h-60.168828c-9.321931 0-12.711724-5.08469-17.796414-14.406621-4.237241-5.932138-11.864276-9.321931-22.033655-9.321931h-118.642758c-11.016828 0-16.948966-5.932138-16.948966-16.948966v-38.135172c0-11.016828 5.932138-16.948966 16.948966-16.948966h134.744276c16.101517 0 25.423448-9.321931 25.423448-25.423448v-29.660689c0-16.101517-9.321931-25.423448-25.423448-25.423449h-134.744276c-11.016828 0-16.948966-5.932138-16.948966-16.948965v-55.084138c0-11.016828 5.932138-16.948966 16.948966-16.948966h215.251862c16.101517 0 25.423448-9.321931 25.423448-25.423448v-29.66069c0-16.101517-9.321931-25.423448-25.423448-25.423448H863.761655c-16.101517 0-25.423448 9.321931-25.423448 25.423448v29.66069c0 16.101517 9.321931 25.423448 25.423448 25.423448h215.251862c11.016828 0 16.948966 5.932138 16.948966 16.948966v55.084138c0 11.016828-5.932138 16.948966-16.948966 16.948965h-134.744276c-16.101517 0-25.423448 9.321931-25.423448 25.423449v29.660689c0 16.101517 9.321931 25.423448 25.423448 25.423448h134.744276c11.016828 0 16.948966 5.932138 16.948966 16.948966v38.135172c0 11.016828-5.932138 16.948966-16.948966 16.948966h-118.642758c-16.101517 0-25.423448 4.237241-25.423449 11.864276 0 7.627034-5.932138 11.864276-16.948965 11.864276h-55.931586c-21.186207 0-27.965793 14.406621-15.254069 31.355586l128.812138 165.252414c5.932138 7.627034 5.932138 14.406621 0.847448 22.881103L971.387586 662.951724z m156.777931-59.321379a24.152276 24.152276 0 0 1-20.338758-10.169379l-63.558621-82.202483c-8.474483-11.016828-4.237241-20.338759 10.169379-20.338759h246.607449c14.406621 0 18.643862 9.321931 10.169379 20.338759l-63.558621 82.202483a24.152276 24.152276 0 0 1-20.338758 10.169379H1128.165517zM1634.868966 644.307862c-16.101517 0-25.423448-9.321931-25.423449-25.423448v-29.66069c0-16.101517 9.321931-25.423448 25.423449-25.423448h66.100965c13.559172 0 18.643862-9.321931 11.864276-20.338759l-99.998897-158.472827c-11.016828-16.948966-3.389793-30.508138 16.948966-30.508138h58.473931c11.016828 0 16.948966-5.932138 16.948965-16.948966l0.847449-238.132965c0-16.948966 9.321931-25.423448 25.423448-25.423449h110.168276c16.101517 0 25.423448 9.321931 25.423448 25.423449V175.668966c0 11.016828 5.932138 16.948966 16.948966 16.948965h191.52331c11.016828 0 16.948966-5.932138 16.948965-16.948965v-21.186207c0-8.474483-2.542345-14.406621-7.627034-21.186207l-22.881103-27.965793c-13.559172-16.948966-6.779586-31.355586 14.40662-31.355587h119.490207c33.050483 0 57.626483 22.881103 57.626483 55.931587V506.173793c0 16.101517-9.321931 25.423448-25.423448 25.423448h-336.436966c-13.559172 0-19.49131 9.321931-11.864276 20.338759l0.847449 0.847448c5.08469 8.474483 11.016828 11.016828 20.338758 11.016828h359.318069c16.101517 0 25.423448 9.321931 25.423448 25.423448v29.66069c0 16.101517-9.321931 25.423448-25.423448 25.423448h-298.301793c-13.559172 0-17.796414 9.321931-11.016828 20.338759 6.779586 11.016828-3.389793 19.49131-23.728551 19.49131h-133.896828c-20.338759 0-27.118345-12.711724-15.254069-30.508138 0.847448-2.542345 0.847448-4.237241 0-5.932138-0.847448-1.694897-5.932138-3.389793-15.254069-3.389793H1634.868966z m232.200827-338.97931c0 11.016828 5.932138 16.948966 16.948966 16.948965h191.52331c11.016828 0 16.948966-5.932138 16.948965-16.948965v-15.254069c0-11.016828-5.932138-16.948966-16.948965-16.948966h-191.52331c-11.016828 0-16.948966 5.932138-16.948966 16.948966v15.254069z m0 128.812138c0 11.016828 5.932138 16.948966 16.948966 16.948965h191.52331c11.016828 0 16.948966-5.932138 16.948965-16.948965v-15.254069c0-11.016828-5.932138-16.948966-16.948965-16.948966h-191.52331c-11.016828 0-16.948966 5.932138-16.948966 16.948966v15.254069z m1962.619586 7.627034c16.101517 0 25.423448-9.321931 25.423449-25.423448v-163.557517c0-16.101517-9.321931-25.423448-25.423449-25.423449h-88.13462c-11.016828 0-16.948966-5.08469-16.948966-13.559172 0-9.321931 5.932138-14.406621 16.948966-14.406621h102.541241c16.101517 0 25.423448-9.321931 25.423448-25.423448v-16.101517c0-16.101517-9.321931-25.423448-25.423448-25.423449h-102.541241c-11.016828 0-16.948966-5.932138-16.948966-16.948965v-13.559172c0-16.101517-9.321931-25.423448-25.423448-25.423449h-91.524414c-16.101517 0-25.423448 9.321931-25.423448 25.423449v13.559172c0 11.016828-5.932138 16.948966-16.948966 16.948965h-102.541241c-16.101517 0-25.423448 9.321931-25.423448 25.423449v16.101517c0 16.101517 9.321931 25.423448 25.423448 25.423448h102.541241c11.016828 0 16.948966 5.932138 16.948966 14.406621 0 8.474483-5.932138 13.559172-16.948966 13.559172h-88.13462c-16.101517 0-25.423448 9.321931-25.423449 25.423449v163.557517c0 16.101517 9.321931 25.423448 25.423449 25.423448h352.538482zM3320.372966 567.190069c1.694897 11.016828-5.08469 17.796414-16.101518 17.796414h-1.694896c-11.016828 0-16.948966-5.932138-16.948966-16.948966v-466.096551c0-16.101517-9.321931-25.423448-25.423448-25.423449h-53.389241c-16.101517 0-25.423448 9.321931-25.423449 25.423449V642.612966c0 16.101517 9.321931 25.423448 25.423449 25.423448h186.43862c16.101517 0 25.423448-9.321931 25.423449-25.423448v-56.779035l-16.101518-109.320828c-1.694897-11.016828-0.847448-17.796414 0-17.796413h1.694897c16.101517 0 24.576-8.474483 26.270896-24.576l2.542345-33.050483 0.353104-5.190621v-0.07062c0.706207-8.827586 1.200552-15.254069 0.494344-25.246897l-13.559172-177.11669c-0.847448-16.101517-10.169379-24.576-26.270896-24.576h-62.711173c-16.101517 0-25.423448 9.321931-25.423448 25.423449v21.186206c0 16.101517 5.08469 25.423448 12.711724 25.423449s12.711724 5.932138 13.559172 16.101517l8.474483 111.015724c0.847448 11.864276-3.389793 17.796414-11.016827 17.796414-16.101517 0-25.423448 9.321931-25.423449 25.423448v47.457104l16.101518 108.473379z m266.946206-2.542345c15.254069 0 24.576-6.779586 27.965794-18.643862l0.847448-3.389793c2.542345-9.321931 8.474483-15.254069 18.643862-15.254069h39.830069c10.169379 0 16.948966 4.237241 19.49131 14.406621l0.847448 4.237241c4.237241 15.254069 13.559172 21.186207 27.965794 21.186207h55.084137c17.796414 0 27.965793-7.627034 24.576-19.49131v-0.847449c-3.389793-11.016828 1.694897-19.49131 13.559173-19.49131h29.66069c16.101517 0 25.423448-9.321931 25.423448-25.423448v-12.711724c0-16.101517-9.321931-25.423448-25.423448-25.423449H3462.744276c-16.101517 0-25.423448 9.321931-25.423448 25.423449v12.711724c0 16.101517 9.321931 25.423448 25.423448 25.423448h30.508138c11.864276 0 18.643862 3.389793 16.948965 9.321931-4.237241 16.948966 4.237241 27.965793 22.033655 27.965793h55.084138zM3450.032552 624.816552c0 16.101517 9.321931 25.423448 25.423448 25.423448h78.81269c11.016828 0 16.948966 1.694897 16.948965 2.542345V654.477241c-12.711724 14.406621-4.237241 27.118345 17.796414 27.118345h99.998897c16.101517 0 25.423448-5.08469 25.423448-15.254069 0-10.169379 5.932138-16.101517 16.948965-16.101517h98.304c16.101517 0 25.423448-9.321931 25.423449-25.423448v-17.796414c0-16.101517-9.321931-25.423448-25.423449-25.423448H3475.456c-16.101517 0-25.423448 9.321931-25.423448 25.423448V624.816552z m112.71062-326.267586c0-8.474483 6.779586-14.406621 16.948966-14.406621h147.456c11.016828 0 16.948966 5.932138 16.948965 14.406621-0.847448 8.474483-6.779586 13.559172-16.948965 13.559172h-147.456c-11.016828 0-17.796414-5.08469-16.948966-13.559172z m16.948966 86.439724c-11.016828 0-16.948966-5.08469-16.948966-13.559173 0-8.474483 5.932138-13.559172 16.948966-13.559172h147.456c11.016828 0 16.948966 5.08469 16.948965 13.559172 0 8.474483-5.932138 13.559172-16.948965 13.559173h-147.456z m-979.614897-31.355587c0 16.101517 9.321931 25.423448 25.423449 25.423449h123.727448c11.016828 0 16.948966 5.932138 16.948965 16.948965v14.406621c0 11.016828-5.932138 16.948966-16.948965 16.948965h-95.761655c-16.101517 0-25.423448 9.321931-25.423449 25.423449V641.765517c0 16.101517 9.321931 25.423448 25.423449 25.423449h391.521103c16.101517 0 25.423448-9.321931 25.423448-25.423449v-188.980965c0-16.101517-9.321931-25.423448-25.423448-25.423449H2939.93931c-11.016828 0-16.948966-5.932138-16.948965-16.948965v-14.406621c0-11.016828 5.932138-16.948966 16.948965-16.948965h123.727449c16.101517 0 25.423448-9.321931 25.423448-25.423449v-29.660689c0-16.101517-9.321931-25.423448-25.423448-25.423448H2939.93931c-11.016828 0-16.948966-5.932138-16.948965-16.948966v-182.201379c0-16.101517-9.321931-25.423448-25.423448-25.423449h-105.931035c-16.101517 0-25.423448 9.321931-25.423448 25.423449V281.6c0 11.016828-5.932138 16.948966-16.948966 16.948966h-123.727448c-16.101517 0-25.423448 9.321931-25.423448 25.423448v29.660689z m-44.914758 322.030345c16.948966 3.389793 27.965793-4.237241 27.965793-22.033655v-553.383724c0-16.101517-9.321931-25.423448-25.423448-25.423448h-98.304c-16.101517 0-25.423448 9.321931-25.423449 25.423448V534.987034c0 11.864276-7.627034 16.948966-18.643862 14.406621h-1.694896c-16.948966-3.389793-27.965793 4.237241-27.965793 22.033655l-0.847449 46.609656c0 16.101517 7.627034 23.728552 22.881104 27.118344l147.456 30.508138z m156.777931-578.807172c-3.389793-14.406621-12.711724-22.033655-27.965793-22.033655h-61.016276c-17.796414 0-26.270897 11.016828-22.881104 27.965793l34.74538 158.472827c3.389793 14.406621 12.711724 22.033655 27.965793 22.033656h61.016276c17.796414 0 26.270897-10.169379 22.881103-27.965794l-34.745379-158.472827z m370.334896 5.932138c3.389793-17.796414-5.932138-27.965793-22.881103-27.965793h-61.016276c-15.254069 0-25.423448 7.627034-27.965793 22.881103l-27.965793 157.625379c-3.389793 17.796414 5.932138 27.118345 22.881103 27.118345h61.016276c15.254069 0 25.423448-7.627034 27.965793-22.881103l27.965793-156.777931zM2761.975172 520.580414c0-11.016828 5.932138-16.948966 16.948966-16.948966h140.676414c11.016828 0 16.948966 5.932138 16.948965 16.948966V573.969655c0 11.016828-5.932138 16.948966-16.948965 16.948966H2778.924138c-11.016828 0-16.948966-5.932138-16.948966-16.948966v-53.389241z"  horiz-adv-x="3919" />
      
    </font>
</defs>
</svg>
